coor
武林盟主

[2016] [其他] [劇情] [WEB-1080P] 兩個愛人和一只熊/熊語戀人 Two.Lovers.and.a.Bear.2016.1080p.WEB-DL.DD5.1.H264-FGT 3.33GB

-->

帖子完整標題:兩個愛人和一只熊/熊語戀人 Two.Lovers.and.a.Bear.2016.1080p.WEB-DL.DD5.1.H264-FGT 3.33GB




◎譯  名 兩個愛人和一只熊 / 熊語戀人(臺)
◎片  名 Two Lovers and a Bear
◎年  代 2016
◎產  地 加拿大
◎類  別 劇情 / 愛情 / 冒險
◎語  言 英語
◎上映日期 2016-05-18(戛納電影節) / 2016-10-07(加拿大)
◎IMDb評分 6.1/10 from 1605 users
◎IMDb鏈接 https://www.imdb.com/title/tt4412528
◎豆瓣評分 6.1/10 from 545 users
◎豆瓣鏈接 https://movie.douban.com/subject/26315901/
◎片  長 96分鐘
◎導  演 基姆·阮 Kim Nguyen
◎編  劇 基姆·阮 Kim Nguyen / 路易斯-弗朗索瓦·格雷尼爾 Louis-Fran?ois Grenier
◎主  演 戴恩·德哈恩 Dane DeHaan
      塔提阿娜·瑪斯拉尼 Tatiana Maslany
      高登·平森特 Gordon Pinsent
      約翰·拉爾斯頓 John Ralston
      喬爾·加涅 Joel Gagne
      杰夫瑞·R·史密斯 Jeffrey R. Smith
      菲尼克斯·威爾遜 Phoenix Wilson
      阿什·卡瑟伍德 Ash Catherwood
      約翰尼·伊薩魯克 Johnny Issaluk
      伊馮娜·E·戴維森 Yvonne E. Davidson
      約瑟芙·納科吉 Joseph Nakogee


◎標  簽 加拿大 | 愛情 | 2016 | 劇情 | 北極 | 小眾 | 文藝 | 人性

◎簡  介

  故事發生在北極附近一個前不著村后不著店的小鎮,兩個年輕人在這里相遇并墜入愛河。

◎獲獎情況

  第69屆戛納電影節(2016)
  導演雙周單元(提名) 阮金
Video
ID : 1
Format : AVC
Format/Info : Advanced Video Codec
Format profile : [email protected]
Format settings : CABAC / 5 Ref Frames
Format settings, CABAC : Yes
Format settings, Reference frames : 5 frames
Codec ID : V_MPEG4/ISO/AVC
Duration : 1 h 35 min
Bit rate : 4 525 kb/s
Width : 1 920 pixels
Height : 808 pixels
Display aspect ratio : 2.40:1
Frame rate mode : Constant
Frame rate : 23.976 FPS
Color space : YUV
Chroma subsampling : 4:2:0
Bit depth : 8 bits
Scan type : Progressive
Bits/(Pixel*Frame) : 0.122
Stream size : 3.01 GiB (90%)
Title : Two.Lovers.and.a.Bear.2016.1080p.WEB-DL.DD5.1.H264-FGT
Language : English
Default : Yes
Forced : No
Color range : Limited
Color primaries : BT.709
Transfer characteristics : BT.709
Matrix coefficients : BT.709

Audio
ID : 2
Format : AC-3
Format/Info : Audio Coding 3
Commercial name : Dolby Digital
Codec ID : A_AC3
Duration : 1 h 35 min
Bit rate mode : Constant
Bit rate : 384 kb/s
Channel(s) : 6 channels
Channel layout : L R C LFE Ls Rs
Sampling rate : 48.0 kHz
Frame rate : 31.250 FPS (1536 SPF)
Bit depth : 16 bits
Compression mode : Lossy
Stream size : 262 MiB (8%)
Title : Two.Lovers.and.a.Bear.2016.1080p.WEB-DL.DD5.1.H264-FGT
Language : English
Service kind : Complete Main
Default : Yes
Forced : No

Menu
00:00:00.000 : en:1
00:03:46.184 : en:2
00:08:14.493 : en:3
00:12:28.830 : en:4
00:17:56.032 : en:5
00:22:53.954 : en:6
00:27:40.448 : en:7
00:31:37.017 : en:8
00:38:37.729 : en:9
00:44:12.397 : en:10
00:52:28.976 : en:11
00:56:29.132 : en:12
01:03:55.912 : en:13
01:10:33.184 : en:14
01:17:38.275 : en:15
01:23:33.380 : en:16





1 個附件 售價 大小 下載 時間

Two.Lovers.and.a.Bear.2016.1080p.WEB-DL.DD5.1.H264-FGT.torrent 0 金幣 67.21K 315 次 19天前

#1樓
發帖時間:2020-01-09 13:16:46   |   回復數:1
911degrees
隱世仙人♂
非常感謝,謝謝分享
19天前 #2樓
游客組