coor
武林盟主

[2013] [歐美] [其他] [WEB-1080P] 麻煩是我的事 Trouble.Is.My.Business.2018.1080p.WEB-DL.DD5.1.H264-FGT 4.03GB

-->

帖子完整標題:麻煩是我的事 Trouble.Is.My.Business.2018.1080p.WEB-DL.DD5.1.H264-FGT 4.03GB




◎譯  名 麻煩是我的事
◎片  名 Trouble Is My Business
◎年  代 2013
◎產  地 美國
◎類  別 犯罪 / 冒險
◎語  言 英語
◎上映日期 2018-04-03(美國)
◎IMDb評分 6.0/10 from 1426 users
◎IMDb鏈接 https://www.imdb.com/title/tt2243900
◎豆瓣評分 0/10 from 0 users
◎豆瓣鏈接 https://movie.douban.com/subject/25792638/
◎片  長 112分鐘
◎導  演 Tom Konkle
◎編  劇 Tom Konkle
◎主  演 勞倫·白考爾 Lauren Bacall
      布里特妮·波威爾 Brittney Powell


◎標  簽 犯罪 | 美國 | 2018 | 美國電影 | 驚悚 | 勞倫·白考爾 | 一看

◎簡  介

  A dark tale of love and betrayal, told in the classic style of film noir. TROUBLE IS MY BUSINESS is a true, hard-boiled noir. Private Detective Roland Drake has fallen on hard times in a harsh world. Drake is being evicted from his office and disgraced by a missing persons case, which has ruined him in the public eye and with police officials. It seems like it's all over for him. Then, redemption walks in... with curves. The owner of those curves is a sexy, dark haired beauty named Katherine Montemar. She wants his help. The chemistry is immediate and her concern for the disappearance of her family members pulls him into her case... and into bed. He wakes up to her missing too, and a pool of blood where she used to be. After a nervous encounter with his one-time partner in investigations, the equally skilled but unscrupulous Lew MacDonald, he is confronted by Katherine's blonde sister, Jennifer, who knows more than she should about everything and blackmails him into helping her.
Video
ID : 1
Format : AVC
Format/Info : Advanced Video Codec
Format profile : [email protected]
Format settings : CABAC / 4 Ref Frames
Format settings, CABAC : Yes
Format settings, Reference frames : 4 frames
Codec ID : V_MPEG4/ISO/AVC
Duration : 1 h 52 min
Bit rate : 4 743 kb/s
Width : 1 920 pixels
Height : 1 008 pixels
Display aspect ratio : 1.905
Frame rate mode : Constant
Frame rate : 23.976 (23976/1000) FPS
Color space : YUV
Chroma subsampling : 4:2:0
Bit depth : 8 bits
Scan type : Progressive
Bits/(Pixel*Frame) : 0.102
Stream size : 3.73 GiB (92%)
Title : Trouble.Is.My.Business.2018.1080p.WEB-DL.DD5.1.H264-FGT
Language : English
Default : Yes
Forced : No
Color range : Limited
Color primaries : BT.709
Transfer characteristics : BT.709
Matrix coefficients : BT.709

Audio
ID : 2
Format : AC-3
Format/Info : Audio Coding 3
Commercial name : Dolby Digital
Codec ID : A_AC3
Duration : 1 h 52 min
Bit rate mode : Constant
Bit rate : 384 kb/s
Channel(s) : 6 channels
Channel layout : L R C LFE Ls Rs
Sampling rate : 48.0 kHz
Frame rate : 31.250 FPS (1536 SPF)
Bit depth : 16 bits
Compression mode : Lossy
Stream size : 309 MiB (7%)
Title : Trouble.Is.My.Business.2018.1080p.WEB-DL.DD5.1.H264-FGT
Language : English
Service kind : Complete Main
Default : Yes
Forced : No

Menu
00:00:00.000 : en:Chapter One
00:15:00.000 : en:Chapter Two
00:30:00.000 : en:Chapter Three
00:45:00.000 : en:Chapter Four
01:00:00.000 : en:Chapter Five
01:15:00.000 : en:Chapter Six
01:30:00.000 : en:Chapter Seven
01:45:00.000 : en:Chapter Eight





1 個附件 售價 大小 下載 時間

Trouble.Is.My.Business.2018.1080p.WEB-DL.DD5.1.H264-FGT.torrent 0 金幣 81.14K 168 次 19天前

#1樓
發帖時間:2020-01-09 13:18:35   |   回復數:1
911degrees
隱世仙人♂
非常感謝,謝謝分享
19天前 #2樓
游客組