coor
武林盟主

[2007] [其他] [劇情] [WEB-1080P] 絹/異旅情絲 Silk.2007.1080p.WEB-DL.AAC2.0.H264-FGT 4.05GB

-->

帖子完整標題:絹/異旅情絲 Silk.2007.1080p.WEB-DL.AAC2.0.H264-FGT 4.05GB




◎譯  名 絹 / 異旅情絲(臺) / 絹戀(港) / 蠶絲
◎片  名 Silk
◎年  代 2007
◎產  地 加拿大 / 法國 / 意大利 / 英國 / 日本
◎類  別 劇情 / 愛情
◎語  言 英語 / 日語 / 拉丁語
◎上映日期 2007-09-21
◎IMDb評分 5.9/10 from 10609 users
◎IMDb鏈接 https://www.imdb.com/title/tt0494834
◎豆瓣評分 6.9/10 from 7831 users
◎豆瓣鏈接 https://movie.douban.com/subject/1578500/
◎片  長 107 分鐘
◎導  演 佛朗索瓦·吉拉德 Fran?ois Girard
◎編  劇 亞利桑德羅·巴里克 Alessandro Baricco / 佛朗索瓦·吉拉德 Fran?ois Girard
◎主  演 蘆名星 Sei Ashina
      邁克爾·皮特 Michael Pitt
      托尼·貝爾多瑞利 Toni Bertorelli
      凱拉·奈特莉 Keira Knightley
      肯尼斯·威爾什 Kenneth Welsh
      阿爾弗雷德·莫里納 Alfred Molina
      中谷美紀 Miki Nakatani
      本鄉奏多 Kanata Hong?
      Carlo Cecchi
      手塚通 Toru Tezuka
      Hiroya Morita
      役所廣司 K?ji Yakusho
      國村隼 Jun Kunimura


◎標  簽 愛情 | KeiraKnightley | 美國 | 日本 | 美國電影 | Silk | 電影 | 2007

◎簡  介

  十九世紀中期,一場致命的天災幾乎毀了法國的絲綢工業,受法國絲綢商人巴達比歐(阿爾佛雷德·莫利納 飾)所托,退役軍人哈維(邁克爾·彼特 飾)離開愛妻海琳(凱拉·奈特莉 飾),赴日購買蠶種。在當時,這并不是一件容易的事,由于處在幕府末期的日本正實行閉關鎖國政策,一切交易只能在暗中進行。當時勢力較大的貴族源十兵衛(役所廣司 飾)同意于哈維做這筆交易,但在商談中,哈維卻被十兵衛的小妾(蘆名星 飾)所吸引,盡管兩人語言不通,但宿命一樣的愛情還是開始了。隨著哈維的四次旅程,兩人之間的感情越來越深。
  遠在法國的海琳,靠做教師帶著兒子艱辛度日。丈夫的遠行,總是讓她擔心不已。隨著時間的推移,海琳漸漸發現哈維似乎有一個異國情人……
Video
ID : 1
Format : AVC
Format/Info : Advanced Video Codec
Format profile : [email protected]
Format settings : CABAC / 4 Ref Frames
Format settings, CABAC : Yes
Format settings, Reference frames : 4 frames
Codec ID : V_MPEG4/ISO/AVC
Duration : 1 h 48 min
Bit rate : 5 216 kb/s
Width : 1 920 pixels
Height : 1 080 pixels
Display aspect ratio : 16:9
Frame rate mode : Constant
Frame rate : 23.976 (23976/1000) FPS
Color space : YUV
Chroma subsampling : 4:2:0
Bit depth : 8 bits
Scan type : Progressive
Bits/(Pixel*Frame) : 0.105
Stream size : 3.95 GiB (98%)
Title : Silk.2007.1080p.WEB-DL.AAC2.0.H.264-FGT
Language : English
Default : Yes
Forced : No
Color range : Limited
Color primaries : BT.709
Transfer characteristics : BT.709
Matrix coefficients : BT.709

Audio
ID : 2
Format : AAC LC
Format/Info : Advanced Audio Codec Low Complexity
Codec ID : A_AAC-2
Duration : 1 h 48 min
Bit rate : 124 kb/s
Channel(s) : 2 channels
Channel layout : L R
Sampling rate : 48.0 kHz
Frame rate : 46.875 FPS (1024 SPF)
Compression mode : Lossy
Stream size : 96.3 MiB (2%)
Title : Silk.2007.1080p.WEB-DL.AAC2.0.H.264-FGT
Language : English
Default : Yes
Forced : No

Text
ID : 3
Format : UTF-8
Codec ID : S_TEXT/UTF8
Codec ID/Info : UTF-8 Plain Text
Duration : 1 h 48 min
Bit rate : 31 b/s
Count of elements : 944
Stream size : 25.3 KiB (0%)
Language : English
Default : Yes
Forced : No

Menu
00:00:00.000 : en:Opening Sequence.
00:07:44.000 : en:A New Life.
00:12:53.000 : en:Japan.
00:19:31.000 : en:Fake Eggs.
00:28:18.000 : en:Summer.
00:34:56.000 : en:Searching.
00:42:36.000 : en:Buying or Selling.
00:49:03.000 : en:Seduction.
00:54:36.000 : en:Come Back.
01:02:56.000 : en:Back to Japan.
01:07:46.000 : en:Village is Gone.
01:13:43.000 : en:Never Come Back.
01:19:32.000 : en:Letter.
01:27:05.000 : en:Grow Old.
01:32:53.000 : en:April.
01:42:23.000 : en:End Credits.





1 個附件 售價 大小 下載 時間

Silk.2007.1080p.WEB-DL.AAC2.0.H264-FGT.torrent 0 金幣 81.46K 364 次 19天前

#1樓
發帖時間:2020-01-09 13:22:42   |   回復數:1
911degrees
隱世仙人♂
非常感謝,謝謝分享
19天前 #2樓
游客組