coor
武林盟主

[更 早] [其他] [喜劇] [WEB-1080P] 怪獸婆婆/邪惡親家母 Monster.In.Law.2005.1080p.WEB-DL.DD5.1.H264-FGT 3.28GB

-->

帖子完整標題:怪獸婆婆/邪惡親家母 Monster.In.Law.2005.1080p.WEB-DL.DD5.1.H264-FGT 3.28GB




◎譯  名 怪獸婆婆 / 邪惡親家母
◎片  名 Monster-in-Law
◎年  代 2005
◎產  地 德國 / 美國
◎類  別 喜劇 / 愛情 / 家庭
◎語  言 英語
◎上映日期 2005-05-12
◎IMDb評分 5.5/10 from 53668 users
◎IMDb鏈接 https://www.imdb.com/title/tt0369735
◎豆瓣評分 6.3/10 from 4776 users
◎豆瓣鏈接 https://movie.douban.com/subject/1309182/
◎片  長 101 分鐘
◎導  演 羅伯特·路克蒂克 Robert Luketic
◎編  劇 Anya Kochoff
◎主  演 詹妮弗·洛佩茲 Jennifer Lopez
      簡·方達 Jane Fonda
      邁克爾·瓦爾坦 Michael Vartan
      旺達·塞克絲 Wanda Sykes
      亞當·斯科特 Adam Scott


◎標  簽 喜劇 | 美國 | JenniferLopez | 美國電影 | 愛情 | 家庭 | 2005 | 怪獸婆婆

◎簡  介

  自古婆媳關系大多棘手,查麗(詹妮弗·洛佩茲 Jennifer Lopez飾)也遇上了同樣的問題。當她就要和男友凱文(邁克爾·瓦爾坦 Michael Vartan飾)百年好合時,卻遇到了一個嚴峻的問題:凱文的媽媽菲爾茨太太(簡·方達 Jane Fonda飾)對這個未來兒媳另有意見。菲爾茨太太曾經擁有體面的事業,然而如今她把全部的愛和心思都擺在兒子身上,不能接受查麗的“入侵”。
  菲爾茨太太聯同助手一起,千方百計地要把查麗這個不速之客趕走,查麗好不容易才覓得如意郎君,當然不能束手就擒,招數一來一往,兩方都在暗處開始較量。
Video
ID : 1
Format : AVC
Format/Info : Advanced Video Codec
Format profile : [email protected]
Format settings : CABAC / 5 Ref Frames
Format settings, CABAC : Yes
Format settings, Reference frames : 5 frames
Codec ID : V_MPEG4/ISO/AVC
Duration : 1 h 41 min
Bit rate : 4 166 kb/s
Width : 1 916 pixels
Height : 812 pixels
Display aspect ratio : 2.35:1
Frame rate mode : Constant
Frame rate : 23.976 (24000/1001) FPS
Color space : YUV
Chroma subsampling : 4:2:0
Bit depth : 8 bits
Scan type : Progressive
Bits/(Pixel*Frame) : 0.112
Stream size : 2.95 GiB (90%)
Title : Monster.In.Law.2005.1080p.WEB-DL.DD5.1.H264-FGT
Language : English
Default : Yes
Forced : No
Color range : Limited
Color primaries : BT.709
Transfer characteristics : BT.709
Matrix coefficients : BT.709

Audio
ID : 2
Format : AC-3
Format/Info : Audio Coding 3
Commercial name : Dolby Digital
Codec ID : A_AC3
Duration : 1 h 41 min
Bit rate mode : Constant
Bit rate : 384 kb/s
Channel(s) : 6 channels
Channel layout : L R C LFE Ls Rs
Sampling rate : 48.0 kHz
Frame rate : 31.250 FPS (1536 SPF)
Bit depth : 16 bits
Compression mode : Lossy
Stream size : 278 MiB (8%)
Title : Monster.In.Law.2005.1080p.WEB-DL.DD5.1.H264-FGT
Language : English
Service kind : Complete Main
Default : Yes
Forced : No

Menu
00:00:00.000 : en:Main Titles/First Sight
00:05:36.000 : en:Party at the Loft
00:10:37.000 : en:Awkward Coffee Break
00:15:59.000 : en:Replacing a Legend
00:20:16.000 : en:Viola's Frest Start
00:25:13.000 : en:Oh My God!
00:33:43.000 : en:The Perfect Project
00:35:40.000 : en:Setting Up Charlie
00:44:09.000 : en:Wedding Planner?
00:50:25.000 : en:New Roommate
00:55:52.000 : en:Hostile Takeover
01:02:45.000 : en:Turning the Tables
01:09:37.000 : en:Lunchtime Showdown
01:15:37.000 : en:Rehearsal Dinner Shenanigans
01:22:24.000 : en:The Big Day
01:27:06.000 : en:The Original Monster
01:30:33.000 : en:Compromise
01:36:04.000 : en:End Credits





1 個附件 售價 大小 下載 時間

Monster.In.Law.2005.1080p.WEB-DL.DD5.1.H264-FGT.torrent 0 金幣 66.30K 168 次 16天前

#1樓
發帖時間:2020-01-09 13:26:46   |   回復數:1
911degrees
隱世仙人♂
非常感謝,謝謝分享
15天前 #2樓
游客組