coor
武林盟主

[更 早] [歐美] [喜劇] [WEB-1080P] 馬里布綁票案/嘻哈接班人 Malibus.Most.Wanted.2003.1080p.WEB-DL.DD.5.1.H264-FGT 2.89GB

-->

帖子完整標題:馬里布綁票案/嘻哈接班人 Malibus.Most.Wanted.2003.1080p.WEB-DL.DD.5.1.H264-FGT 2.89GB




◎譯  名 馬里布綁票案 / 嘻哈接班人 / 潮爆Hip Hop王
◎片  名 Malibu's Most Wanted
◎年  代 2003
◎產  地 美國
◎類  別 喜劇 / 犯罪
◎語  言 英語
◎上映日期 2003-04-18
◎IMDb評分 5.1/10 from 17961 users
◎IMDb鏈接 https://www.imdb.com/title/tt0328099
◎豆瓣評分 6.5/10 from 121 users
◎豆瓣鏈接 https://movie.douban.com/subject/1302322/
◎片  長 USA: 86 分鐘
◎導  演 John Whitesell
◎編  劇 Fax Bahr (Adam Small) / Fax Bahr / 杰米 肯尼迪 (Jamie Kennedy)
◎主  演 Jamie Kennedy
      Taye Diggs
      Anthony Anderson


◎標  簽 喜劇 | 搞笑 | 黑人 | 黑幫 | 美國電影 | 美國 | hop | hip

◎簡  介

  布拉德是生活在加州馬里布市的一個白人孩子,但是他卻著迷于美國黑人的饒舌樂,認為自己是整個馬里布最熱的饒舌歌手,還管自己叫"B-拉德"。每天他和幾個同伴一起玩音,雖出身當地一個顯赫的白人家庭,說的卻全是黑人貧民窟小孩的"黑話",滿嘴跑俚語。他幻想自己是貧民區的孩子,覺得黑幫分子的生活新鮮刺激,十分向往。他的這種怪癖讓他的家人很是受不了。
   布拉德的父親比爾正在競選加州州長,布拉德于是熱心為父親出謀劃策,可是他編的那些競選口號充滿了上流社會所不齒的詞匯,他的歌曲更是令大家不安。再這樣下去只怕競選會活活給毀了。為了讓布拉德改變眼下這種不靠譜的態度,競選助手給比爾出謀劃策,決定給布拉德一個教訓,讓他看看清楚,自己有沒有饒舌歌手的才華,而黑幫生活是不是真那么有趣。
   于是一出活劇上演了。比爾找來了兩個失業的演員肖恩和PJ,讓他們扮演黑幫分子,假裝綁架布拉德,把他帶到真正的黑人街區,讓他嘗嘗真實生活的滋味。布拉德卻不是那么輕易就會被折服的。他也許不切實際,但他的熱情感染了一路碰到的人,包括一個南方的漂亮姑娘。
Video
ID : 1
Format : AVC
Format/Info : Advanced Video Codec
Format profile : [email protected]
Format settings : CABAC / 5 Ref Frames
Format settings, CABAC : Yes
Format settings, Reference frames : 5 frames
Format settings, GOP : N=2
Codec ID : V_MPEG4/ISO/AVC
Duration : 1 h 26 min
Bit rate : 4 318 kb/s
Width : 1 918 pixels
Height : 796 pixels
Display aspect ratio : 2.40:1
Frame rate mode : Constant
Frame rate : 23.976 (24000/1001) FPS
Color space : YUV
Chroma subsampling : 4:2:0
Bit depth : 8 bits
Scan type : Progressive
Bits/(Pixel*Frame) : 0.118
Stream size : 2.60 GiB (90%)
Title : Malibus.Most.Wanted.2003.1080p.WEB-DL.DD.5.1.H264-FGT
Language : English
Default : Yes
Forced : No
Color range : Limited
Color primaries : BT.709
Transfer characteristics : BT.709
Matrix coefficients : BT.709

Audio
ID : 2
Format : AC-3
Format/Info : Audio Coding 3
Commercial name : Dolby Digital
Codec ID : A_AC3
Duration : 1 h 26 min
Bit rate mode : Constant
Bit rate : 384 kb/s
Channel(s) : 6 channels
Channel layout : L R C LFE Ls Rs
Sampling rate : 48.0 kHz
Frame rate : 31.250 FPS (1536 SPF)
Bit depth : 16 bits
Compression mode : Lossy
Stream size : 237 MiB (8%)
Title : Malibus.Most.Wanted.2003.1080p.WEB-DL.DD.5.1.H264-FGT
Language : English
Service kind : Complete Main
Default : Yes
Forced : No





1 個附件 售價 大小 下載 時間

Malibus.Most.Wanted.2003.1080p.WEB-DL.DD.5.1.H264-FGT.torrent 0 金幣 58.38K 154 次 19天前

#1樓
發帖時間:2020-01-09 13:28:47   |   回復數:1
911degrees
隱世仙人♂
非常感謝,謝謝分享
19天前 #2樓
游客組