coor
武林盟主

[2017] [歐美] [劇情] [WEB-1080P] 梅格雷在蒙馬特/麥格雷在蒙馬特 Maigret.in.Montmartre.2017.1080p.WEB-DL.AAC2.0.H264-FGT 3.34GB

-->

帖子完整標題:梅格雷在蒙馬特/麥格雷在蒙馬特 Maigret.in.Montmartre.2017.1080p.WEB-DL.AAC2.0.H264-FGT 3.34GB




◎譯  名 梅格雷在蒙馬特 / 麥格雷在蒙馬特
◎片  名 Maigret in Montmartre
◎年  代 2017
◎產  地 英國
◎類  別 劇情 / 懸疑 / 犯罪
◎語  言 英語 / 德語
◎上映日期 2017-12-24(英國)
◎IMDb評分 7.0/10 from 2460 users
◎IMDb鏈接 https://www.imdb.com/title/tt6429934
◎豆瓣評分 7.2/10 from 1060 users
◎豆瓣鏈接 https://movie.douban.com/subject/27012010/
◎片  長 89分鐘
◎導  演 薩杜斯·奧沙利文 Thaddeus O'Sullivan
◎編  劇 蓋·安德魯斯 Guy Andrews / 喬治·西默農 Georges Simenon
◎主  演 羅溫·艾金森 Rowan Atkinson
      洛琳·艾什本 Lorraine Ashbourne
      凱西·克萊爾 Cassie Clare
      露西·科乎 Lucy Cohu
      塞巴斯蒂安·德·索薩 Sebastian De Souza
      肖恩·丁沃 Shaun Dingwall
      馬克·希普 Mark Heap
      道格拉斯·霍奇斯 Douglas Hodges
      莎拉·克斯托曼 Sara Kestelman
      科林·梅斯 Colin Mace
      Gyula Mesterházy
      李奧·斯塔 Leo Staar
      奧莉維婭·維納勒 Olivia Vinall


◎標  簽 懸疑 | 英劇 | 英國 | 推理 | 偵探 | 犯罪 | 梅格雷 | 2017

◎簡  介

  繼2016年推出兩部根據比利時作家喬治·西默農作品改編的梅格雷探長系列電視電影之后,ITV宣布續訂兩部該系列電視電影,依舊由“憨豆先生”羅溫·艾金森主演,斯圖爾特·哈考特編劇,第一部為《十字路口之夜》,第二部為《梅格雷在蒙馬特》,預計于2017年播出。
Video
ID : 1
Format : AVC
Format/Info : Advanced Video Codec
Format profile : [email protected]
Format settings : CABAC / 2 Ref Frames
Format settings, CABAC : Yes
Format settings, Reference frames : 2 frames
Codec ID : V_MPEG4/ISO/AVC
Duration : 1 h 29 min
Bit rate mode : Variable
Bit rate : 5 202 kb/s
Maximum bit rate : 768 kb/s
Width : 1 920 pixels
Height : 1 080 pixels
Display aspect ratio : 16:9
Frame rate mode : Constant
Frame rate : 25.000 FPS
Color space : YUV
Chroma subsampling : 4:2:0
Bit depth : 8 bits
Scan type : Progressive
Bits/(Pixel*Frame) : 0.100
Stream size : 3.26 GiB (98%)
Title : Maigret.in.Montmartre.2017.1080p.WEB-DL.AAC2.0.H.264-FGT
Language : English
Default : Yes
Forced : No

Audio
ID : 2
Format : AAC LC
Format/Info : Advanced Audio Codec Low Complexity
Codec ID : A_AAC-2
Duration : 1 h 29 min
Bit rate : 124 kb/s
Channel(s) : 2 channels
Channel layout : L R
Sampling rate : 48.0 kHz
Frame rate : 46.875 FPS (1024 SPF)
Compression mode : Lossy
Stream size : 79.4 MiB (2%)
Title : Maigret.in.Montmartre.2017.1080p.WEB-DL.AAC2.0.H.264-FGT
Language : English
Default : Yes
Forced : No

Menu
00:00:00.000 : en:Chapter 1
00:08:13.076 : en:Chapter 2
00:15:06.072 : en:Chapter 3
00:24:54.660 : en:Chapter 4
00:29:25.305 : en:Chapter 5
00:38:10.622 : en:Chapter 6
00:47:17.960 : en:Chapter 7
00:52:53.462 : en:Chapter 8
00:58:25.335 : en:Chapter 9
01:02:42.634 : en:Chapter 10
01:10:39.360 : en:Chapter 11
01:17:59.884 : en:Chapter 12





1 個附件 售價 大小 下載 時間

Maigret.in.Montmartre.2017.1080p.WEB-DL.AAC2.0.H264-FGT.torrent 0 金幣 67.35K 280 次 19天前

#1樓
發帖時間:2020-01-09 13:30:49   |   回復數:1
911degrees
隱世仙人♂
非常感謝,謝謝分享
19天前 #2樓
游客組