coor
武林盟主

[2019] [歐美] [動作] [BD-1080P] 洛城夜巡/邪惡皇冠 Crown.Vic.2019.1080p.BluRay.x264.DTS-HD.MA.5.1-FGT 9.09GB

-->

帖子完整標題:洛城夜巡/邪惡皇冠 Crown.Vic.2019.1080p.BluRay.x264.DTS-HD.MA.5.1-FGT 9.09GB




◎譯  名 洛城夜巡 / 邪惡皇冠
◎片  名 Crown Vic
◎年  代 2019
◎產  地 美國
◎類  別 動作 / 犯罪
◎語  言 英語
◎上映日期 2019-04-26(Tribeca Film Festival) / 2019-11-08(美國)
◎IMDb評分 6.3/10 from 1169 users
◎IMDb鏈接 https://www.imdb.com/title/tt4558200
◎豆瓣評分 0/10 from 0 users
◎豆瓣鏈接 https://movie.douban.com/subject/26765424/
◎片  長 100分鐘
◎導  演 喬爾·蘇扎 Joel Souza
◎編  劇 Joel Souza
◎主  演 Scottie Thompson
      托馬斯·簡 Thomas Jane
      盧克·克萊恩坦克 Luke Kleintank
      大衛·克朗姆霍茨 David Krumholtz
      布麗姬·穆娜 Bridget Moynahan
      戴文·沃克海瑟 Devon Werkheiser
      喬什·霍普金斯 Josh Hopkins


◎標  簽 美國 | 犯罪 | 2019 | 電影 | 美國電影 | 性奴,反轉 | 黑色幽默 | 社會

◎簡  介

  亞力克·鮑德溫聯手斯科特·伊斯特伍德,加盟影片《邪惡皇冠》飾演兩位洛杉磯警官,具體角色名未知。鮑德溫與伊斯特伍德這對搭檔在抓壞蛋方面毫無固定章法,當他們遇到兩個以殺警察為樂的連環殺手時,一出“互相被對方蠢哭”的戲碼就要上演。
Video
ID : 1
Format : AVC
Format/Info : Advanced Video Codec
Format profile : [email protected]
Format settings : CABAC / 5 Ref Frames
Format settings, CABAC : Yes
Format settings, Reference frames : 5 frames
Codec ID : V_MPEG4/ISO/AVC
Duration : 1 h 50 min
Bit rate : 9 834 kb/s
Width : 1 920 pixels
Height : 808 pixels
Display aspect ratio : 2.40:1
Frame rate mode : Constant
Frame rate : 23.976 (24000/1001) FPS
Color space : YUV
Chroma subsampling : 4:2:0
Bit depth : 8 bits
Scan type : Progressive
Bits/(Pixel*Frame) : 0.264
Stream size : 7.58 GiB (83%)
Title : Crown.Vic.2019.1080p.BluRay.x264.DTS-HD.MA.5.1-FGT
Writing library : x264 core 159 r2991 1771b55
Encoding settings : cabac=1 / ref=5 / deblock=1:-3:-3 / analyse=0x3:0x113 / me=umh / subme=8 / psy=1 / psy_rd=1.00:0.00 / mixed_ref=1 / me_range=16 / chroma_me=1 / trellis=1 / 8x8dct=1 / cqm=0 / deadzone=21,11 / fast_pskip=1 / chroma_qp_offset=-2 / threads=25 / lookahead_threads=4 / sliced_threads=0 / nr=0 / decimate=1 / interlaced=0 / bluray_compat=0 / constrained_intra=0 / bframes=3 / b_pyramid=2 / b_adapt=1 / b_bias=0 / direct=3 / weightb=1 / open_gop=0 / weightp=2 / keyint=250 / keyint_min=23 / scenecut=40 / intra_refresh=0 / rc_lookahead=50 / rc=2pass / mbtree=1 / bitrate=9834 / ratetol=1.0 / qcomp=0.60 / qpmin=0 / qpmax=69 / qpstep=4 / cplxblur=20.0 / qblur=0.5 / ip_ratio=1.40 / aq=1:1.00
Language : English
Default : Yes
Forced : No

Audio
ID : 2
Format : DTS XLL
Format/Info : Digital Theater Systems
Commercial name : DTS-HD Master Audio
Codec ID : A_DTS
Duration : 1 h 50 min
Bit rate mode : Variable
Bit rate : 1 925 kb/s
Channel(s) : 6 channels
Channel layout : C L R Ls Rs LFE
Sampling rate : 48.0 kHz
Frame rate : 93.750 FPS (512 SPF)
Bit depth : 16 bits
Compression mode : Lossless
Stream size : 1.48 GiB (16%)
Title : Crown.Vic.2019.1080p.BluRay.x264.DTS-HD.MA.5.1-FGT
Language : English
Default : Yes
Forced : No

Text #1
ID : 3
Format : UTF-8
Codec ID : S_TEXT/UTF8
Codec ID/Info : UTF-8 Plain Text
Duration : 1 h 45 min
Bit rate : 79 b/s
Count of elements : 2108
Stream size : 61.7 KiB (0%)
Title : English-SRT
Language : English
Default : Yes
Forced : No

Text #2
ID : 4
Format : PGS
Muxing mode : zlib
Codec ID : S_HDMV/PGS
Codec ID/Info : Picture based subtitle format used on BDs/HD-DVDs
Duration : 1 h 45 min
Bit rate : 57.7 kb/s
Count of elements : 4224
Stream size : 43.7 MiB (0%)
Title : English-PGS
Language : English
Default : No
Forced : No

Menu
00:00:00.000 : en:Chapter 01
00:09:11.384 : en:Chapter 02
00:18:51.255 : en:Chapter 03
00:27:17.510 : en:Chapter 04
00:38:53.789 : en:Chapter 05
00:45:42.698 : en:Chapter 06
00:55:58.897 : en:Chapter 07
01:05:54.283 : en:Chapter 08
01:14:48.400 : en:Chapter 09
01:27:30.245 : en:Chapter 10
01:36:13.184 : en:Chapter 11
01:46:27.756 : en:Chapter 12





1 個附件 售價 大小 下載 時間

Crown.Vic.2019.1080p.BluRay.x264.DTS-HD.MA.5.1-FGT.torrent 0 金幣 45.97K 1113 次 19天前

#1樓
發帖時間:2020-01-09 14:14:56   |   回復數:1
911degrees
隱世仙人♂
非常感謝,謝謝分享
19天前 #2樓
游客組