coor
武林盟主

[2015] [歐美] [其他] [BD-1080P] 葡萄酒進瓶的那些事 SOMM.Into.the.Bottle.2015.1080p.BluRay.x264-HANDJOB 7.75GB

-->

帖子完整標題:葡萄酒進瓶的那些事 SOMM.Into.the.Bottle.2015.1080p.BluRay.x264-HANDJOB 7.75GB




◎譯  名 葡萄酒進瓶的那些事
◎片  名 SOMM: Into the Bottle
◎年  代 2015
◎產  地 美國
◎類  別 紀錄片
◎語  言 英語
◎上映日期 2015-11-11
◎IMDb評分 7.3/10 from 1461 users
◎IMDb鏈接 https://www.imdb.com/title/tt5161502
◎豆瓣評分 7.9/10 from 139 users
◎豆瓣鏈接 https://movie.douban.com/subject/26710969/
◎片  長 90分鐘
◎導  演 Jason Wise
◎編  劇 Christina Tucker / Jason Wise
◎主  演 Silvia Altare
      Brian Carmody
      Ian Cauble


◎標  簽 葡萄酒 | 紀錄片 | 美食 | 美國 | Documentary | 2015 | 飲食 | 電影

◎簡  介

  The history, politics, pleasure, and BS of wine told through opening ten very different bottles.
Video
ID : 1
Format : AVC
Format/Info : Advanced Video Codec
Format profile : [email protected]
Format settings : CABAC / 4 Ref Frames
Format settings, CABAC : Yes
Format settings, Reference frames : 4 frames
Codec ID : V_MPEG4/ISO/AVC
Duration : 1 h 30 min
Bit rate : 11.7 Mb/s
Width : 1 920 pixels
Height : 1 080 pixels
Display aspect ratio : 16:9
Frame rate mode : Constant
Frame rate : 23.976 (24000/1001) FPS
Color space : YUV
Chroma subsampling : 4:2:0
Bit depth : 8 bits
Scan type : Progressive
Bits/(Pixel*Frame) : 0.235
Stream size : 7.35 GiB (95%)
Writing library : x264 core 157 r2935 545de2f
Encoding settings : cabac=1 / ref=4 / deblock=1:-3:-3 / analyse=0x3:0x133 / me=umh / subme=10 / psy=1 / psy_rd=1.00:0.00 / mixed_ref=1 / me_range=32 / chroma_me=1 / trellis=2 / 8x8dct=1 / cqm=0 / deadzone=21,11 / fast_pskip=0 / chroma_qp_offset=-2 / threads=24 / lookahead_threads=6 / sliced_threads=0 / nr=0 / decimate=0 / interlaced=0 / bluray_compat=0 / constrained_intra=0 / bframes=16 / b_pyramid=2 / b_adapt=2 / b_bias=0 / direct=3 / weightb=1 / open_gop=0 / weightp=2 / keyint=240 / keyint_min=24 / scenecut=40 / intra_refresh=0 / rc_lookahead=60 / rc=crf / mbtree=0 / crf=16.5 / qcomp=0.60 / qpmin=0 / qpmax=69 / qpstep=4 / vbv_maxrate=62500 / vbv_bufsize=78125 / crf_max=0.0 / nal_hrd=none / filler=0 / ip_ratio=1.40 / pb_ratio=1.30 / aq=2:1.00
Language : English
Default : Yes
Forced : No
Color range : Limited
Color primaries : BT.709
Transfer characteristics : BT.709
Matrix coefficients : BT.709

Audio
ID : 2
Format : AC-3
Format/Info : Audio Coding 3
Commercial name : Dolby Digital
Codec ID : A_AC3
Duration : 1 h 30 min
Bit rate mode : Constant
Bit rate : 640 kb/s
Channel(s) : 6 channels
Channel layout : L R C LFE Ls Rs
Sampling rate : 48.0 kHz
Frame rate : 31.250 FPS (1536 SPF)
Bit depth : 16 bits
Compression mode : Lossy
Stream size : 413 MiB (5%)
Language : English
Service kind : Complete Main
Default : Yes
Forced : No

Text
ID : 3
Format : UTF-8
Codec ID : S_TEXT/UTF8
Codec ID/Info : UTF-8 Plain Text
Duration : 1 h 27 min
Bit rate : 100 b/s
Count of elements : 1842
Stream size : 64.7 KiB (0%)
Language : English
Default : No
Forced : No

Menu
00:00:00.000 : :Chapter 1
00:05:38.213 : :Chapter 2
00:11:41.409 : :Chapter 3
00:17:09.529 : :Chapter 4
00:24:58.956 : :Chapter 5
00:29:04.243 : :Chapter 6
00:35:15.363 : :Chapter 7
00:40:18.082 : :Chapter 8
00:47:16.584 : :Chapter 9
00:54:43.906 : :Chapter 10
01:00:43.723 : :Chapter 11
01:06:11.634 : :Chapter 12
01:10:19.841 : :Chapter 13
01:13:51.260 : :Chapter 14
01:20:27.197 : :Chapter 15
01:28:13.663 : :Chapter 16





1 個附件 售價 大小 下載 時間

SOMM.Into.the.Bottle.2015.1080p.BluRay.x264-HANDJOB.torrent 0 金幣 39.29K 462 次 16天前

#1樓
發帖時間:2020-01-09 14:17:01   |   回復數:1
911degrees
隱世仙人♂
非常感謝,謝謝分享
15天前 #2樓
游客組