coor
武林盟主

[更 早] [其他] [驚悚] [BD-1080P] 變種女狼2 Ginger.Snaps.2.Unleashed.2004.1080p.BluRay.x264-GUACAMOLE 7.65GB

-->

帖子完整標題:變種女狼2 Ginger.Snaps.2.Unleashed.2004.1080p.BluRay.x264-GUACAMOLE 7.65GB




◎譯  名 變種女狼2
◎片  名 Ginger Snaps: Unleashed
◎年  代 2004
◎產  地 加拿大
◎類  別 驚悚 / 恐怖
◎語  言 英語
◎上映日期 2004-01-30
◎IMDb評分 6.4/10 from 12093 users
◎IMDb鏈接 https://www.imdb.com/title/tt0353489
◎豆瓣評分 6.0/10 from 387 users
◎豆瓣鏈接 https://movie.douban.com/subject/1309144/
◎片  長 94 分鐘
◎導  演 Brett Sullivan
◎編  劇 Karen Walton / Megan Martin
◎主  演 Emily Perkins
      Brendan Fletcher
      Katharine Isabelle


◎標  簽 恐怖 | 加拿大 | 驚悚 | 狼人 | 2004 | 恐怖電影 | 加拿大電影 | 魔幻

◎簡  介

  故事緊接著上一集發展。布里奇特(艾米莉·帕金斯 Emily Perkins 飾)親眼目睹了姐姐金吉(凱瑟琳·伊莎貝爾 Katharine Isabelle 飾)變身成為狼人所經歷的痛苦,心有余悸的她決定絕不步姐姐的后塵,她開始和潛伏在體內的狼人基因展開較量。
  為了阻止狼人基因的發展,布里奇特不斷的往體內注射著藥物,因此被誤會是癮君子,而被迫關進了戒毒所中。在那里,布里奇特失去了藥物的來源,隨著時間的推移,她的本性蠢蠢欲動。與此同時,金吉從未放棄過對于妹妹的追蹤,她的腳步一點一滴的迫近著。不僅如此,在醫院之中,亦隱藏著一個巨大的威脅。四面楚歌之中,布里奇特能否順利脫身?
Video
ID : 1
Format : AVC
Format/Info : Advanced Video Codec
Format profile : [email protected]
Format settings : CABAC / 4 Ref Frames
Format settings, CABAC : Yes
Format settings, Reference frames : 4 frames
Codec ID : V_MPEG4/ISO/AVC
Duration : 1 h 34 min
Bit rate : 10.1 Mb/s
Width : 1 920 pixels
Height : 1 080 pixels
Display aspect ratio : 16:9
Frame rate mode : Constant
Frame rate : 23.976 (24000/1001) FPS
Color space : YUV
Chroma subsampling : 4:2:0
Bit depth : 8 bits
Scan type : Progressive
Bits/(Pixel*Frame) : 0.203
Stream size : 6.65 GiB (87%)
Writing library : x264 core 159 r2991 1771b55
Encoding settings : cabac=1 / ref=4 / deblock=1:0:0 / analyse=0x3:0x113 / me=umh / subme=8 / psy=1 / psy_rd=1.00:0.00 / mixed_ref=1 / me_range=16 / chroma_me=1 / trellis=2 / 8x8dct=1 / cqm=0 / deadzone=21,11 / fast_pskip=0 / chroma_qp_offset=-2 / threads=24 / lookahead_threads=4 / sliced_threads=0 / nr=0 / decimate=1 / interlaced=0 / bluray_compat=0 / constrained_intra=0 / bframes=3 / b_pyramid=2 / b_adapt=1 / b_bias=0 / direct=1 / weightb=1 / open_gop=0 / weightp=2 / keyint=250 / keyint_min=23 / scenecut=40 / intra_refresh=0 / rc_lookahead=50 / rc=2pass / mbtree=1 / bitrate=10106 / ratetol=1.0 / qcomp=0.60 / qpmin=0 / qpmax=69 / qpstep=4 / cplxblur=20.0 / qblur=0.5 / ip_ratio=1.40 / aq=1:1.00
Default : Yes
Forced : No

Audio
ID : 2
Format : DTS
Format/Info : Digital Theater Systems
Codec ID : A_DTS
Duration : 1 h 34 min
Bit rate mode : Constant
Bit rate : 1 509 kb/s
Channel(s) : 6 channels
Channel layout : C L R Ls Rs LFE
Sampling rate : 48.0 kHz
Frame rate : 93.750 FPS (512 SPF)
Bit depth : 24 bits
Compression mode : Lossy
Stream size : 1 017 MiB (13%)
Language : English
Default : No
Forced : No

Menu
00:00:00.000 : en:00:00:00.000
00:07:36.456 : en:00:07:36.456
00:15:29.929 : en:00:15:29.929
00:22:45.364 : en:00:22:45.364
00:31:01.860 : en:00:31:01.860
00:41:12.470 : en:00:41:12.470
00:49:34.972 : en:00:49:34.972
00:55:28.325 : en:00:55:28.325
01:02:35.752 : en:01:02:35.752
01:09:24.160 : en:01:09:24.160
01:18:39.715 : en:01:18:39.715
01:30:43.438 : en:01:30:43.438





1 個附件 售價 大小 下載 時間

Ginger.Snaps.2.Unleashed.2004.1080p.BluRay.x264-GUACAMOLE.torrent 0 金幣 38.96K 476 次 19天前

#1樓
發帖時間:2020-01-09 14:18:57   |   回復數:2
911degrees
隱世仙人♂
非常感謝,謝謝分享
19天前 #2樓
tanchoohoon
武林盟主
感謝樓主的無私分享
19天前 #3樓
游客組