coor
武林盟主

[2018] [其他] [劇情] [BD-720P] 動物園/在喪尸中呼喚愛(日) Zoo.2018.720p.BluRay.x264-GETiT 4.37GB

-->

帖子完整標題:動物園/在喪尸中呼喚愛(日) Zoo.2018.720p.BluRay.x264-GETiT 4.37GB




◎譯  名 動物園 / 在喪尸中呼喚愛(日)
◎片  名 Zoo
◎年  代 2018
◎產  地 丹麥
◎類  別 劇情 / 喜劇 / 恐怖
◎語  言 英語
◎上映日期 2018-10-05(西班牙)
◎IMDb評分 5.4/10 from 799 users
◎IMDb鏈接 https://www.imdb.com/title/tt7624934
◎豆瓣評分 5.4/10 from 551 users
◎豆瓣鏈接 https://movie.douban.com/subject/30245268/
◎片  長 95分鐘
◎導  演 安東尼奧·圖布倫 Antonio Tublen
◎編  劇 安東尼奧·圖布倫 Antonio Tublen
◎主  演 愛德華·斯皮伊爾斯 Ed Speleers
      佐伊·塔珀 Zo? Tapper
      安東尼婭·坎貝爾·休斯 Antonia Campbell-Hughes
      揚·貝弗特 Jan Bijvoet
      盧卡斯·洛克倫 Lukas Loughran
      克勞斯·赫朱勒 Klaus Hjuler
      丹尼·泰凱爾 Danny Thyk?r
      帕特里克·卡爾森 Patrik Karlson
      托馬斯·恰興 Thomas Chaanhing


◎標  簽 喪尸 | 愛情 | 丹麥 | 恐怖 | 劇情 | 2018 | 末日 | 人性

◎簡  介

  一對夫婦在喪尸末日試圖挽救他們的婚姻。
Video
ID : 1
Format : AVC
Format/Info : Advanced Video Codec
Format profile : [email protected]
Format settings : CABAC / 5 Ref Frames
Format settings, CABAC : Yes
Format settings, Reference frames : 5 frames
Codec ID : V_MPEG4/ISO/AVC
Duration : 1 h 34 min
Bit rate : 5 126 kb/s
Width : 1 280 pixels
Height : 536 pixels
Display aspect ratio : 2.40:1
Frame rate mode : Constant
Frame rate : 24.000 FPS
Color space : YUV
Chroma subsampling : 4:2:0
Bit depth : 8 bits
Scan type : Progressive
Bits/(Pixel*Frame) : 0.311
Stream size : 3.38 GiB (77%)
Writing library : x264 core 158 r2988 7817004
Encoding settings : cabac=1 / ref=5 / deblock=1:0:0 / analyse=0x3:0x133 / me=umh / subme=7 / psy=1 / psy_rd=1.00:0.00 / mixed_ref=1 / me_range=16 / chroma_me=1 / trellis=2 / 8x8dct=1 / cqm=0 / deadzone=21,11 / fast_pskip=0 / chroma_qp_offset=-2 / threads=12 / lookahead_threads=2 / sliced_threads=0 / nr=0 / decimate=1 / interlaced=0 / bluray_compat=0 / constrained_intra=0 / bframes=3 / b_pyramid=2 / b_adapt=1 / b_bias=0 / direct=3 / weightb=1 / open_gop=0 / weightp=2 / keyint=250 / keyint_min=24 / scenecut=40 / intra_refresh=0 / rc_lookahead=50 / rc=2pass / mbtree=1 / bitrate=5126 / ratetol=1.0 / qcomp=0.60 / qpmin=0 / qpmax=69 / qpstep=4 / cplxblur=20.0 / qblur=0.5 / ip_ratio=1.40 / aq=1:1.00
Language : English
Default : Yes
Forced : No

Audio
ID : 2
Format : DTS
Format/Info : Digital Theater Systems
Codec ID : A_DTS
Duration : 1 h 34 min
Bit rate mode : Constant
Bit rate : 1 509 kb/s
Channel(s) : 6 channels
Channel layout : C L R Ls Rs LFE
Sampling rate : 48.0 kHz
Frame rate : 93.750 FPS (512 SPF)
Bit depth : 24 bits
Compression mode : Lossy
Stream size : 1 019 MiB (23%)
Title : dts
Language : English
Default : Yes
Forced : No

Menu
00:00:00.000 : en:00:00:00.000
00:07:06.917 : en:00:07:06.917
00:15:02.417 : en:00:15:02.417
00:22:54.250 : en:00:22:54.250
00:31:00.333 : en:00:31:00.333
00:39:42.792 : en:00:39:42.792
00:47:45.375 : en:00:47:45.375
00:54:38.417 : en:00:54:38.417
01:02:20.917 : en:01:02:20.917
01:15:36.667 : en:01:15:36.667
01:25:15.750 : en:01:25:15.750
01:31:45.875 : en:01:31:45.875





1 個附件 售價 大小 下載 時間

Zoo.2018.720p.BluRay.x264-GETiT.torrent 0 金幣 44.40K 266 次 19天前

#1樓
發帖時間:2020-01-09 14:33:02   |   回復數:1
911degrees
隱世仙人♂
非常感謝,謝謝分享
19天前 #2樓
游客組