來自猩猩的你4444
武林高手

[2018] [日本] [喜劇] [全集] [磁力下載][我是大哥大/全集][BD-MKV/49.01G][日語/內封繁簡日英字幕][1080P][KiR]

-->

◎譯  名 我是大哥大 / From Today, It's My Turn!!(英)

◎片  名 今日から俺は??!

◎年  代 2018

◎產  地 日本

◎類  別 劇情 / 喜劇

◎語  言 日語

◎上映日期 2018-10-14(日本)

◎IMDb評分  8.1/10 from 131 users

◎IMDb鏈接  https://www.imdb.com/title/tt8207660

◎豆瓣評分 9.1/10 from 152449 users

◎豆瓣鏈接 https://movie.douban.com/subject/30183785/

◎集  數 10

◎片  長 46分鐘

◎導  演 福田雄一 Y?ichi Fukuda

◎編  劇 福田雄一 Y?ichi Fukuda

◎主  演 賀來賢人 Kento Kaku

       伊藤健太郎 Kentaro Ito

       清野菜名 Nana Seino

       橋本環奈 Kanna Hashimoto

       太賀 Taiga

       矢本悠馬 Yuma Yamoto

       鈴木伸之 Nobuyuki Suzuki

       磯村勇斗 Hayato Isomura

       室毅 Tsuyoshi Muro

       佐藤二朗 Jir? Sat?

       若月佑美 Yumi Wakatsuki

       柾木玲彌 Reiya Masaki

       城田優 Yuu Shirota



◎標  簽 沙雕 | 中二 | 搞笑 | 日本 | 喜劇 | 校園 | 青春 | 熱血


◎簡  介  


  故事發生在20世紀80年代,中學生三橋貴志(賀來賢人 飾)和伊藤真司(伊藤健太郎 飾)轉學來到新的學校,為了看起來兇惡一點,他們不約而同改換了不良少年的打扮。剛剛入學,兩人意外打倒十人,一戰成名。此后他們結識了女校的戲精大姐大早川京子(橋本環奈 飾)、男校的大嗓門傻老大今井(太賀 飾)、今井的小跟班谷川(矢本悠馬 飾)以及本校的功夫紀律委員赤坂理子(清野菜名 飾)。在與黑道分子和其他學校不良少年的抗爭過程中,少男少女的友情不斷加深,而爆笑沙雕的故事也接二連三的發生。三橋與伊藤的確度過了一段難忘的青春歲月……

  本片根據同名漫畫改編。


◎獲獎情況  


  第5屆豆瓣電影年度榜單(2018)

  評分最高的日劇(提名)

General

Unique ID                      : 267892848380000914710625955148265019274 (0xC98A492E01288634EE63887F8841D78A)

Complete name                  : I:\Download\From.Today.It's.My.Turn.S01E02.1080p.BluRay.FLAC.2.0.x264-KiR.mkv

Format                         : Matroska

Format version                 : Version 4

File size                      : 4.78 GiB

Duration                       : 45 min 59 s

Overall bit rate mode          : Variable

Overall bit rate               : 14.9 Mb/s

Movie name                     : From.Today.It's.My.Turn.S01E02.1080p.BluRay.FLAC.2.0.x264-KiR

Encoded date                   : UTC 2019-08-18 11:46:27

Writing application            : mkvmerge v34.0.0 ('Sight and Seen') 64-bit

Writing library                : libebml v1.3.7 + libmatroska v1.5.0


Video

ID                             : 1

Format                         : AVC

Format/Info                    : Advanced Video Codec

Format profile                 : [email protected]

Format settings                : CABAC / 4 Ref Frames

Format settings, CABAC         : Yes

Format settings, ReFrames      : 4 frames

Codec ID                       : V_MPEG4/ISO/AVC

Duration                       : 45 min 59 s

Bit rate                       : 14.1 Mb/s

Width                          : 1 920 pixels

Height                         : 1 080 pixels

Display aspect ratio           : 16:9

Frame rate mode                : Constant

Frame rate                     : 29.970 (30000/1001) FPS

Color space                    : YUV

Chroma subsampling             : 4:2:0

Bit depth                      : 8 bits

Scan type                      : Progressive

Bits/(Pixel*Frame)             : 0.228

Stream size                    : 4.54 GiB (95%)

Writing library                : x264 core 157 r2970+47 cae74a0 t_mod_New [[email protected] X86_64]

Encoding settings              : cabac=1 / ref=4 / deblock=1:-3:-3 / analyse=0x3:0x133 / me=umh / subme=10 / psy=1 / fade_compensate=0.00 / psy_rd=1.05:0.00 / mixed_ref=1 / me_range=32 / chroma_me=1 / trellis=2 / 8x8dct=1 / cqm=0 / deadzone=21,11 / fast_pskip=0 / chroma_qp_offset=-2 / threads=12 / lookahead_threads=1 / sliced_threads=0 / nr=0 / decimate=0 / interlaced=0 / bluray_compat=0 / constrained_intra=0 / fgo=0 / bframes=6 / b_pyramid=2 / b_adapt=2 / b_bias=0 / direct=3 / weightb=1 / open_gop=0 / weightp=2 / keyint=250 / keyint_min=25 / scenecut=40 / intra_refresh=0 / rc_lookahead=250 / rc=crf / mbtree=0 / crf=16.4000 / qcomp=0.65 / qpmin=0:0:0 / qpmax=69:69:69 / qpstep=4 / vbv_maxrate=62500 / vbv_bufsize=78125 / crf_max=0.0 / nal_hrd=none / filler=0 / ip_ratio=1.30 / pb_ratio=1.20 / aq=3:0.75 / aq-sensitivity=10.00 / aq-factor=1.00:1.00:1.00 / aq2=0 / aq3=0

Default                        : Yes

Forced                         : No

Color range                    : Limited

Color primaries                : BT.709

Matrix coefficients            : BT.709


Audio

ID                             : 2

Format                         : FLAC

Format/Info                    : Free Lossless Audio Codec

Codec ID                       : A_FLAC

Duration                       : 45 min 59 s

Bit rate mode                  : Variable

Bit rate                       : 649 kb/s

Channel(s)                     : 2 channels

Channel layout                 : L R

Sampling rate                  : 48.0 kHz

Frame rate                     : 11.719 FPS (4096 SPF)

Bit depth                      : 16 bits

Compression mode               : Lossless

Stream size                    : 213 MiB (4%)

Writing library                : libFLAC 1.2.1 (UTC 2007-09-17)

Language                       : Japanese

Default                        : Yes

Forced                         : No


Text #1

ID                             : 3

Format                         : UTF-8

Codec ID                       : S_TEXT/UTF8

Codec ID/Info                  : UTF-8 Plain Text

Duration                       : 45 min 55 s

Bit rate                       : 63 b/s

Count of elements              : 738

Stream size                    : 21.3 KiB (0%)

Language                       : English

Default                        : Yes

Forced                         : No


Text #2

ID                             : 4

Format                         : PGS

Muxing mode                    : zlib

Codec ID                       : S_HDMV/PGS

Codec ID/Info                  : Picture based subtitle format used on BDs/HD-DVDs

Duration                       : 45 min 53 s

Bit rate                       : 41.3 kb/s

Count of elements              : 1463

Stream size                    : 13.6 MiB (0%)

Title                          : Simplified

Language                       : Chinese

Default                        : No

Forced                         : No


Text #3

ID                             : 5

Format                         : PGS

Muxing mode                    : zlib

Codec ID                       : S_HDMV/PGS

Codec ID/Info                  : Picture based subtitle format used on BDs/HD-DVDs

Duration                       : 45 min 53 s

Bit rate                       : 41.6 kb/s

Count of elements              : 1463

Stream size                    : 13.7 MiB (0%)

Title                          : Traditional

Language                       : Chinese

Default                        : No

Forced                         : No


Text #4

ID                             : 6

Format                         : PGS

Muxing mode                    : zlib

Codec ID                       : S_HDMV/PGS

Codec ID/Info                  : Picture based subtitle format used on BDs/HD-DVDs

Duration                       : 45 min 40 s

Bit rate                       : 121 kb/s

Count of elements              : 2361

Stream size                    : 39.5 MiB (1%)

Language                       : Japanese

Default                        : No

Forced                         : No


Menu

00:00:00.000                   : en:Chapter 1

00:13:46.025                   : en:Chapter 2

00:25:00.031                   : en:Chapter 3

00:32:52.036                   : en:Chapter 4

藍光原盤OCR測試字幕(中文簡體):

鏈接:https://pan.baidu.com/s/1QgScmUiagqreATetNIygzA 

提取碼:js3r

雖然我很認真的去OCR字幕了,但是十集字幕實在太多了,難免百密一疏 。我就怕“千小心萬小心,還是出了紕漏”。如果字幕出了問題,那后果不敢想象。不可能,我也絕不能讓任何問題出現。無論如何,我都要保證硬字幕的版本沒有任何錯別字。所以先把OCR的外掛字幕發出來,希望有熱心的網友幫忙檢查,指出哪里有錯別字。我再改正重壓。如果沒有錯別字,那已經壓好的硬字幕版本馬上就會發布!

磁力鏈接:

magnet:?xt=urn:btih:48827EE80E558ACEFFF9866020BF959323C23BA2

迅雷解析失敗,只好發磁力。期待大神轉種子。

#1樓
發帖時間:2020-01-09 08:38:00   |   回復數:5
exiuluo
武林高手
太中二了 哈哈 還是不看了 要不遲早藥丸
19天前 #2樓
janus0
無名小卒
在線看好像沒有字幕啊
19天前 #3樓
來自猩猩的你4444
武林高手
引用 janus0:

在線看好像沒有字幕啊

都說了這是測試字幕版,是先發給你們檢查的,如果發現有錯別字可以告訴我,我改完再發硬字幕版,用我ocr過的ass拖過去測試,別直接看內封臺譯版字幕。

藍光全集的片源我當初因為用錯了英文名所以沒有找到,硬字幕版是用藍光原盤壓的,不是用這個。我擔心你們也找不到藍光全集無字片源,所以在發布硬字幕版之前先發這個別人壓的現成的版本。

19天前 #4樓
cliff168
一派掌門
感謝分享好東西
19天前 #5樓
911degrees
隱世仙人♂
非常感謝,謝謝分享
19天前 #6樓
游客組